200MPH (2011 DVDRip) - Filmai / ENG - Siuntiniai - Golden-Skill.ucoz.com - Pramogų portalas!
Antradienis, 2016-12-06 3:07 PM
ReklamaV.I.P Reklama
Reklama
TVKinas.eu - Filmai online nemokamai!
TVKinas.eu - Filmai online nemokamai! Vieta jūsų reklamai  
IPP.lt - Internetiniø Projektø Priegloba!

Navigacija
Kategorijos
Filmai / LTU [326]
Filmai / RU [50]
Filmai / ENG [12]
Online Filmai -LT- [27]
PC Žaidimai [239]
Animacija [15]
Nintendo Wii [37]
PlayStation2 [23]
PlayStation3 [18]
XBOX 360 [41]
PSP [66]
Muzikos Albumai [49]
Muzika [18]
Counter-Strike [83]
Programos [37]
Paveikslėliai [16]
Paieška
Apklausos
Ar geras svetainės dizainas?



Rezultatai
Balsavo: 181
Statistika

Išviso Prisijungusiu: 1
Svečiai: 1
Užsiregistravę: 0
Kas šiandien apsilankė?
Pagrindinis » Siuntiniai » Filmai / ENG

200MPH (2011 DVDRip)
Filmo paveikslas
Originalus pavadinimas: 200MPH
Išleidimo metai: 2011
Žanras: Veiksmo
Režisierius: Cole S. McKay
Vaidina: Sam Aaron, Sean Cory Cooper, Michael Gaglio, Janet Tracy Keijser, Paul Logan, Meredith Louise Thomas, Tommy Nash, Pason, Makelaie, Paton Ashbrook ir kiti
Trukmė: 1hr 32min
Kokybė: DVDrip
Garsas: * Stream #0.1: Audio: mp3, 48000 Hz, 2 channels, s16, 64 kb/s * Duration: 01:32:11.13, start: 0.000000, bitrate: 1199 kb/s * Stream #0.0: Video: mpeg4, yuv420p, 720x404 [PAR 1:1 DAR 180:101], 23.98 tbr, 23.98 tbn, 23.98 tbc














Originalus pavadinimas: 200MPH
Išleidimo metai: 2011
Žanras: Action


Režisierius: Cole S. McKay


Vaidina: Sam Aaron, Sean Cory Cooper, Michael Gaglio, Janet Tracy Keijser, Paul Logan, Meredith Louise Thomas, Tommy Nash, Pason, Makelaie, Paton Ashbrook ir kiti
Trukmė: 1hr 32min


Kokybė: DVDrip
Garsas: * Stream #0.1: Audio: mp3, 48000 Hz, 2 channels, s16, 64 kb/s * Duration: 01:32:11.13, start: 0.000000, bitrate: 1199 kb/s * Stream #0.0: Video: mpeg4, yuv420p, 720x404 [PAR 1:1 DAR 180:101], 23.98 tbr, 23.98 tbn, 23.98 tbc
Aprašymas 
An amateur racer gets involved in illegal street racing after the death of his brother.

Texted language(s):Spanish
Size: 790.61 MB

200MPH (2011 DVDRip)200MPH (2011 DVDRip)200MPH (2011 DVDRip)200MPH (2011 DVDRip)

Kategorija: Filmai EN 
Kalba: Anglų 
Dydis: 790.61 MB



Jūs žiūrite: 200MPH (2011 DVDRip) treilerį.

Kategorija: Filmai / ENG | Pridėjo: -Guttas | Žymos: racing, dvdrip, 200MPH (2011 DVDRip), English, eng, EN, 200, mph, QounD, 2011
Pažiurėjo: 905 | Parsisiuntė: 127 | Komentarai: 1 | Vertinimas: 0.0/0
Iš viso komentarų: 0
Tik registruoti nariai gali komentuoti.
[ Registracija | Prisijunkti ]
Prisijungimas

Svečias

Avatar


Svečias, mes džiaugiames jus matydami. Prašome užsiregistruoti arba prisijungti!.

Šaukykla
200
Rekomenduojam
FireFox  Opera    
Serverio reklama 5lt/men
Top'ai
Tinklapių Top Reitingai
/>
Partneriai
  • Online filmai nemokamai.

  • ReklamaV.I.P Reklama
    Reklama
    Vaizdingoje Alaušo ežero pakrantėje jauki ir romantiška sodyba.
    Vieta jūsų reklamai Vieta jūsų reklamai Golden-Skill.TK 
    Vieta jūsų reklamai
    Išsižadėjimas: Nė vienas failas, kuris matosi puslapyje, nėra patalpintas šiame serveryje. Puslapyje matomos nuorodos yra patalpintos puslapio vartotojų. Šios svetainės (http://golden-skill.ucoz.com) administracija neturi nieko bendro ir negali būti atsakingi už bet kokius šios svetainės lankytojų padarytus veiksmus, pavyzdžiui, įdėtas nuorodas ar pasisakymus. Jūs negalite naudotis šia svetaine (http://golden-skill.ucoz.com) norėdami platinti ar siųstis bet kokią informaciją, jei neturite legalių teisių šiems veiksmams. Todėl Jūs privalote laikytis aukščiau nurodytų sąlygų. Oficialiems asmenims paprašius, puslapio administracija pasižada pašalinti jų saugomą ar kitą kenkėjišką informaciją iš puslapio turinio.
      | © 2010-2011 |
    Administracija - Mano statusas