K-19: The Widowmaker 2002 BDRip XviD AC3 LT- BTT - Filmai / LTU - Siuntiniai - Golden-Skill.ucoz.com - Pramogų portalas!
Pirmadienis, 2019-10-21 11:31 AM
ReklamaV.I.P Reklama
Reklama
TVKinas.eu - Filmai online nemokamai!
TVKinas.eu - Filmai online nemokamai! Vieta jūsų reklamai  
IPP.lt - Internetiniø Projektø Priegloba!

Navigacija
Kategorijos
Filmai / LTU [326]
Filmai / RU [50]
Filmai / ENG [12]
Online Filmai -LT- [27]
PC Žaidimai [239]
Animacija [15]
Nintendo Wii [37]
PlayStation2 [23]
PlayStation3 [18]
XBOX 360 [41]
PSP [66]
Muzikos Albumai [49]
Muzika [18]
Counter-Strike [83]
Programos [37]
Paveikslėliai [16]
Paieška
Apklausos
Ar geras svetainės dizainas?



Rezultatai
Balsavo: 186
Statistika

Išviso Prisijungusiu: 1
Svečiai: 1
Užsiregistravę: 0
Kas šiandien apsilankė?
Pagrindinis » Siuntiniai » Filmai / LTU

K-19: The Widowmaker 2002 BDRip XviD AC3 LT- BTT
Informacija Movies LT Kategorija: Movies LT
Dydis: 2.17 GB (2,329,393,186 B)
Įdėta: 2010-06-02 10:07:26
Aprašymas

Premjera: Liepos 19, 2002
Premjera Lietuvoje: Nenustatyta
Žanras: Drama, Trileris
Režisavo: Kathryn Bigelow  
Vaidina: Sam Spruell, Peter Stebbings, Christian Camargo, Roman Podhora, Sam Redford  …
Vertimas: lietuviu k. (profesionalus, vienbalsis)

Siužetas: Šiurpiausios istorijos – tos, kurios nutiko iš tikrųjų. Vos pernai pasirodžiusiame filme „K-19" Harrisonas Fordas suvaidino avariją patyrusio sovietų atominio povandeninio laivo vadą Nikolajų Zatejevą. Prieš 40 metų prie Amerikos krantų atominio reaktoriaus gedimas pavertė laivą bomba su laikrodiniu mechanizmu.

Jei laivas būtų sprogęs, prie JAV krantų būtų atsiradęs nedidelis Černobylis, o Vašingtonas šį įvykį galėjo palaikyti Sovietų Sąjungos branduolinės agresijos pradžia. Beje, istorija į viešumą iškilo tik 1989-aisiais – lig tol KGB vertė įgulą tylėti. Tikrasis „K-19" vadas Maskvoje mirė prieš trejus metus.

http://www.imdb.com/title/tt0267626/
User Rating: 6.5/10 - (21,758 votes)

Citata:

General
Complete name                    : K-19.The.Widowmaker.2002.BDRip.LT.BTT-Team.mkv
Format                           : Matroska
File size                        : 2.17 GiB
Duration                         : 2h 18mn
Overall bit rate                 : 2 249 Kbps
Movie name                       : BTT-Team
Encoded date                     : UTC 2010-05-27 05:52:05
Writing application              : mkvmerge v2.2.0 ('Turn It On Again') built on Mar  4 2008 12:58:26
Writing library                  : libebml v0.7.7 + libmatroska v0.8.1

Video
ID                               : 1
Format                           : AVC
Format/Info                      : Advanced Video Codec
Format profile                   : Main@L3.0
Format settings, CABAC           : Yes
Format settings, ReFrames        : 1 frame
Muxing mode                      : Container profile=Unknown@3.0
Codec ID                         : V_MPEG4/ISO/AVC
Duration                         : 2h 17mn
Bit rate                         : 1 756 Kbps
Nominal bit rate                 : 1 808 Kbps
Width                            : 720 pixels
Height                           : 304 pixels
Display aspect ratio             : 2.35:1
Frame rate                       : 23.976 fps
Resolution                       : 8 bits
Colorimetry                      : 4:2:0
Scan type                        : Progressive
Bits/(Pixel*Frame)               : 0.335
Stream size                      : 1.69 GiB (78%)
Writing library                  : x264 core 80 r1376M 3feaec2
Language                         : English

Audio
ID                               : 2
Format                           : AC-3
Format/Info                      : Audio Coding 3
Codec ID                         : A_AC3
Duration                         : 2h 18mn
Bit rate mode                    : Constant
Bit rate                         : 448 Kbps
Channel(s)                       : 6 channels
Channel positions                : Front: L C R, Surround: L R, LFE
Sampling rate                    : 48.0 KHz
Stream size                      : 443 MiB (20%)
Title                            : K-19.The.Widowmaker.2002.BDRip.LT.BTT-Team
Language                         : Lithuanian



Jūs žiūrite: K-19: The Widowmaker 2002 BDRip XviD AC3 LT- BTT treilerį.

Kategorija: Filmai / LTU | Pridėjo: -Guttas
Pažiurėjo: 845 | Parsisiuntė: 35 | Vertinimas: 5.0/1
Iš viso komentarų: 0
Tik registruoti nariai gali komentuoti.
[ Registracija | Prisijunkti ]
Prisijungimas

Svečias

Avatar


Svečias, mes džiaugiames jus matydami. Prašome užsiregistruoti arba prisijungti!.

Šaukykla
200
Rekomenduojam
FireFox  Opera    
Serverio reklama 5lt/men
Top'ai
Tinklapių Top Reitingai
/>
Partneriai
  • Online filmai nemokamai.

  • ReklamaV.I.P Reklama
    Reklama
    Vaizdingoje Alaušo ežero pakrantėje jauki ir romantiška sodyba.
    Vieta jūsų reklamai Vieta jūsų reklamai Golden-Skill.TK 
    Vieta jūsų reklamai
    Išsižadėjimas: Nė vienas failas, kuris matosi puslapyje, nėra patalpintas šiame serveryje. Puslapyje matomos nuorodos yra patalpintos puslapio vartotojų. Šios svetainės (http://golden-skill.ucoz.com) administracija neturi nieko bendro ir negali būti atsakingi už bet kokius šios svetainės lankytojų padarytus veiksmus, pavyzdžiui, įdėtas nuorodas ar pasisakymus. Jūs negalite naudotis šia svetaine (http://golden-skill.ucoz.com) norėdami platinti ar siųstis bet kokią informaciją, jei neturite legalių teisių šiems veiksmams. Todėl Jūs privalote laikytis aukščiau nurodytų sąlygų. Oficialiems asmenims paprašius, puslapio administracija pasižada pašalinti jų saugomą ar kitą kenkėjišką informaciją iš puslapio turinio.
      | © 2010-2011 |
    Administracija - Mano statusas